V.A. - Working Man: A Tribute To Rush (1996) [Japanese Ed.]

Author: devilreload Date 28-01-2015, 00:57   
Download Now

V.A. - Working Man: A Tribute To Rush (1996) [Japanese Ed.]

V.A. - Working Man: A Tribute To Rush (1996) [Japanese Ed.]
EAC Rip | APE: Image+Cue+Log | 562 Mb | MP3 CBR 320 kbps | 194 Mb | Scans | 73 Mb | Time: 1:12:44
Genre: Progressive Metal, Tribute | Label: Magna Carta/Roadrunner Records (Japan) | Cat.№: RRCY-1010

""Working Man: A Tribute to Rush" is a tribute album to progressive rock band Rush recorded by various artists and released on Magna Carta Records in 1996. The album was mixed by original Rush producer Terry Brown at Town Music Studios in Toronto, Canada. Mike Portnoy was the main creative consultant."



Track Listing

01. Sebastian Bach - Working Man (03:53)
02. James LaBrie - By-Tor And The Snow Dog (04:12)
03. Jack Russell - Analog Kid (05:19)
04. Mike Baker - The Trees (04:33)
05. Steve Morce - La Villa Strangiato (09:28)
06. Eric Martin - Mission (05:36)
07. Mark Slaughter - Anthem (04:14)
08. Sebastian Bach - Jacob's Ladder (07:38)
09. Fates Warning - Closer To The Heart (03:03)
10. Devin Townsend - Natural Science (08:39)
11. James Murphy - YYZ (04:20)
12. James LaBrie - Red Barchetta (06:13)
13. Gregoor van der Loo - Freewill (05:29)

Produced by Peter Morticelli & Mike Varney

Notes

* Tracks 1 to 5, and 8, basic tracks recorded at Prairie Sun Studios, Cotati, CA. Sebastian Bach's Vocals recorded at Beat Street Productions, New York, NY. James LaBrie's vocals recorded at The Advanced Audio Group, Toronto, Canada.
* Tracks 7, 10 & 11 basic tracks recorded at Prairie Sun Studios, Cotati, CA. Stuart Hamm's bass recorded at Andy Brauer's Studio. Additional overdubs recorded at Sound Temple Studio, Oakland, CA.
* Track 6 recorded & mixed at Soundtek Studio, Campbell, CA.
* Track 9 recorded at Bill's Place, North Hollywood, CA.
* Track 12 basic tracks recorded at Morrisound, Tampa, FL. Vocals & Rhythm Guitar recorded at The Advanced Audio Group, Toronto, Canada.
* Track 13 basic tracks recorded at Cairo West Studio / Shadow Gallery Studio, Easton, PA / Studio Sasquatch, Vacaville, CA, and Studio R529 Waalwijk, The Netherlands.

Exact Audio Copy V0.99 prebeta 5 from 4. May 2009

EAC extraction logfile from 18. April 2012, 12:34

Various Artists / Working Man - Japan (RRCY-1010)

Used drive : TSSTcorpCDDVDW TS-L633C Adapter: 0 ID: 0

Read mode : Secure
Utilize accurate stream : Yes
Defeat audio cache : Yes
Make use of C2 pointers : No

Read offset correction : 6
Overread into Lead-In and Lead-Out : No
Fill up missing offset samples with silence : Yes
Delete leading and trailing silent blocks : No
Null samples used in CRC calculations : No
Used interface : Native Win32 interface for Win NT & 2000

Used output format : Monkey's Audio Lossless Encoder
Selected bitrate : Fast Lossless Compression
Quality : High
Add ID3 tag : Yes
Command line compressor : C:\Program Files (x86)\Exact Audio Copy\MAC.EXE

TOC of the extracted CD Track | Start | Length | Start sector | End sector
-----------
1 | 0:00.00 | 3:53.05 | 0 | 17479
2 | 3:53.05 | 4:12.35 | 17480 | 36414
3 | 8:05.40 | 5:19.02 | 36415 | 60341
4 | 13:24.42 | 4:33.63 | 60342 | 80879
5 | 17:58.30 | 9:28.45 | 80880 | 123524
6 | 27:27.00 | 5:36.32 | 123525 | 148756
7 | 33:03.32 | 4:14.65 | 148757 | 167871
8 | 37:18.22 | 7:38.55 | 167872 | 202276
9 | 44:57.02 | 3:03.53 | 202277 | 216054
10 | 48:00.55 | 8:39.22 | 216055 | 255001
11 | 56:40.02 | 4:20.60 | 255002 | 274561
12 | 61:00.62 | 6:13.33 | 274562 | 302569
13 | 67:14.20 | 5:29.52 | 302570 | 327296

Range status and errors

Selected range Filename D:\Música\Rush\Tribute\Various Artists - Working Man - Japan (RRCY-1010).wav Peak level 100.0 %
Range quality 100.0 %
Test CRC 07FA4471
Copy CRC DBF98923
Copy OK

No errors occurred
AccurateRip summary

Track 1 accurately ripped (confidence 2) [04DC39FE]
Track 2 accurately ripped (confidence 2) [F21FAEAF]
Track 3 accurately ripped (confidence 2) [0E561F97]
Track 4 accurately ripped (confidence 2) [00AC4149]
Track 5 accurately ripped (confidence 2) [D6D47416]
Track 6 accurately ripped (confidence 2) [1C051B08]
Track 7 accurately ripped (confidence 2) [FE7BD907]
Track 8 accurately ripped (confidence 2) [23DE3752]
Track 9 accurately ripped (confidence 2) [09BC7F5D]
Track 10 accurately ripped (confidence 2) [A5592A43]
Track 11 accurately ripped (confidence 2) [4F0F3973]
Track 12 cannot be verified as accurate (confidence 2) [2CB35EA2], AccurateRip returned [8B79D59B]
Track 13 accurately ripped (confidence 2) [03342918]

12 track(s) accurately ripped
1 track(s) could not be verified as accurate

Some tracks could not be verified as accurate

End of status report

Many thanks to the original uploader: jarpomarx
DOWNLOAD:
Buy Premium To Support Me & Get Resumable Support & Max Speed


Links are Interchangeable - No Password
Direct Download

Tags: Working, Tribute, Japanese

V.A. - Working Man: A Tribute To Rush (1996) [Japanese Ed.] Fast Download via Rapidshare Hotfile Fileserve Filesonic Megaupload, V.A. - Working Man: A Tribute To Rush (1996) [Japanese Ed.] Torrents and Emule Download or anything related.
Dear visitor, you went to the site as unregistered user.
We encourage you to Register or enter the site under your name.

Comments:

Information
Members of Guest cannot leave comments.