American Made Movie (2013)

Author: devilreload Date 28-01-2015, 00:48   
Download Now


American Made Movie (2013)
American Made Movie (2013)
BRRip 400p | 720x400 | .AVI/XviD @ 1584 Kbps | 1h 25mn | Audio: English MP3 192 kbps, 2 channels | Subs: None | 1.07 GiB
BRRip 720p | 1280x720 | .AVI/XviD @ 3791 Kbps | 1h 25mn | Audio: English AC3 640 kbps, 6 channels | Subs: None | 2.65 GiB
Genre: Documentary | Drama | History

"American Made Movie looks back on the glory days of U.S. manufacturing when there was a more balanced relationship between the goods produced and consumed, and illustrates how technology and globalization have changed the competitive landscape for companies doing business in America, as well as overseas. By illustrating the successes of companies and entrepreneurs that, of their own accord, have prospered without adopting the practices of their competitors, American Made Movie shows the positive impact these jobs can have on national and local economies in the face of great challenges."

More info

General
Complete name : American.Made.Movie.2013.BRRip.avi
Format : AVI
Format/Info : Audio Video Interleave
Format profile : OpenDML
File size : 1.07 GiB
Duration : 1h 25mn
Overall bit rate : 1 792 Kbps

Video
ID : 0
Format : MPEG-4 Visual
Format profile : [email protected]
Format settings, BVOP : No
Format settings, QPel : No
Format settings, GMC : No warppoints
Format settings, Matrix : Default (H.263)
Codec ID : XVID
Codec ID/Hint : XviD
Duration : 1h 25mn
Bit rate : 1 584 Kbps
Width : 720 pixels
Height : 400 pixels
Display aspect ratio : 16:9
Frame rate : 23.976 fps
Color space : YUV
Chroma subsampling : 4:2:0
Bit depth : 8 bits
Scan type : Progressive
Compression mode : Lossy
Bits/(Pixel*Frame) : 0.229
Stream size : 967 MiB (88%)

Audio
ID : 1
Format : MPEG Audio
Format version : Version 1
Format profile : Layer 3
Mode : Joint stereo
Mode extension : MS Stereo
Codec ID : 55
Codec ID/Hint : MP3
Duration : 1h 25mn
Bit rate mode : Constant
Bit rate : 192 Kbps
Channel(s) : 2 channels
Sampling rate : 48.0 KHz
Compression mode : Lossy
Stream size : 117 MiB (11%)
Alignment : Aligned on interleaves
Interleave, duration : 24 ms (0.58 video frame)
Interleave, preload duration : 24 ms

General
Complete name : American.Made.Movie.2013.720p.BRRip.avi
Format : AVI
Format/Info : Audio Video Interleave
Format profile : OpenDML
File size : 2.65 GiB
Duration : 1h 25mn
Overall bit rate : 4 442 Kbps

Video
ID : 0
Format : MPEG-4 Visual
Format profile : [email protected]
Format settings, BVOP : No
Format settings, QPel : No
Format settings, GMC : No warppoints
Format settings, Matrix : Default (H.263)
Codec ID : XVID
Codec ID/Hint : XviD
Duration : 1h 25mn
Bit rate : 3 791 Kbps
Width : 1 280 pixels
Height : 720 pixels
Display aspect ratio : 16:9
Frame rate : 23.976 fps
Color space : YUV
Chroma subsampling : 4:2:0
Bit depth : 8 bits
Scan type : Progressive
Compression mode : Lossy
Bits/(Pixel*Frame) : 0.172
Stream size : 2.26 GiB (85%)

Audio
ID : 1
Format : AC-3
Format/Info : Audio Coding 3
Mode extension : CM (complete main)
Format settings, Endianness : Big
Codec ID : 2000
Duration : 1h 25mn
Bit rate mode : Constant
Bit rate : 640 Kbps
Channel(s) : 6 channels
Channel positions : Front: L C R, Side: L R, LFE
Sampling rate : 48.0 KHz
Bit depth : 16 bits
Compression mode : Lossy
Stream size : 391 MiB (14%)
Alignment : Aligned on interleaves
Interleave, duration : 42 ms (1.00 video frame)
Interleave, preload duration : 512 ms

Screenshots:

American Made Movie (2013)

American Made Movie (2013)

American Made Movie (2013)


DOWNLOAD:
Buy Premium To Support Me & Get Resumable Support & Max Speed

Uploaded.net:
xwe9c.American.Made.Movie.2013.720p.BRRip.part1.rar
xwe9c.American.Made.Movie.2013.720p.BRRip.part2.rar
xwe9c.American.Made.Movie.2013.720p.BRRip.part3.rar
xwe9c.American.Made.Movie.2013.720p.BRRip.part4.rar
xwe9c.American.Made.Movie.2013.720p.BRRip.part5.rar
xwe9c.American.Made.Movie.2013.720p.BRRip.part6.rar
xwe9c.American.Made.Movie.2013.720p.BRRip.part7.rar
xwe9c.American.Made.Movie.2013.BRRip.part1.rar
xwe9c.American.Made.Movie.2013.BRRip.part2.rar
xwe9c.American.Made.Movie.2013.BRRip.part3.rar

Rapidgator.net:
xwe9c.American.Made.Movie.2013.720p.BRRip.part1.rar.html
xwe9c.American.Made.Movie.2013.720p.BRRip.part2.rar.html
xwe9c.American.Made.Movie.2013.720p.BRRip.part3.rar.html
xwe9c.American.Made.Movie.2013.720p.BRRip.part4.rar.html
xwe9c.American.Made.Movie.2013.720p.BRRip.part5.rar.html
xwe9c.American.Made.Movie.2013.720p.BRRip.part6.rar.html
xwe9c.American.Made.Movie.2013.720p.BRRip.part7.rar.html
xwe9c.American.Made.Movie.2013.BRRip.part1.rar.html
xwe9c.American.Made.Movie.2013.BRRip.part2.rar.html
xwe9c.American.Made.Movie.2013.BRRip.part3.rar.html

Uploadable.ch:
xwe9c.American.Made.Movie.2013.720p.BRRip.part1.rar
xwe9c.American.Made.Movie.2013.720p.BRRip.part2.rar
xwe9c.American.Made.Movie.2013.720p.BRRip.part3.rar
xwe9c.American.Made.Movie.2013.720p.BRRip.part4.rar
xwe9c.American.Made.Movie.2013.720p.BRRip.part5.rar
xwe9c.American.Made.Movie.2013.720p.BRRip.part6.rar
xwe9c.American.Made.Movie.2013.720p.BRRip.part7.rar
xwe9c.American.Made.Movie.2013.BRRip.part1.rar
xwe9c.American.Made.Movie.2013.BRRip.part2.rar
xwe9c.American.Made.Movie.2013.BRRip.part3.rar

Turbobit.net:
xwe9c.American.Made.Movie.2013.720p.BRRip.part1.rar.html
xwe9c.American.Made.Movie.2013.720p.BRRip.part2.rar.html
xwe9c.American.Made.Movie.2013.720p.BRRip.part3.rar.html
xwe9c.American.Made.Movie.2013.720p.BRRip.part4.rar.html
xwe9c.American.Made.Movie.2013.720p.BRRip.part5.rar.html
xwe9c.American.Made.Movie.2013.720p.BRRip.part6.rar.html
xwe9c.American.Made.Movie.2013.720p.BRRip.part7.rar.html
xwe9c.American.Made.Movie.2013.BRRip.part1.rar.html
xwe9c.American.Made.Movie.2013.BRRip.part2.rar.html
xwe9c.American.Made.Movie.2013.BRRip.part3.rar.html

Links are Interchangeable - No Password
Direct Download

Tags: American

American Made Movie (2013) Fast Download via Rapidshare Hotfile Fileserve Filesonic Megaupload, American Made Movie (2013) Torrents and Emule Download or anything related.
Dear visitor, you went to the site as unregistered user.
We encourage you to Register or enter the site under your name.

Comments:

Information
Members of Guest cannot leave comments.